extratorrent - A Fan Made AlternativeLogin   |   Register
Important Information
Registrations are open now
-------------------------------------

Please click here to register with Extratorrent2 to recieve latest updates, add bookmarks and to post comments.

Friends
Friends

1) Filebebo
-------------------------------------
2) MoviesDig
-------------------------------------
3) Torrentz2.cc
-------------------------------------
4) Torrents.me

Extratorrent2 > Categories > Movies > Daphne and Velma (2018) DVDRip x264 AC3 by Full4movies torrent


Browse Movies torrents

Daphne and Velma (2018) DVDRip x264 AC3 by Full4movies torrent


Download torrent: Download Daphne and Velma (2018) DVDRip x264 AC3 by Full4movies torrent Magnet link Bookmark Torrent: Daphne and Velma (2018) DVDRip x264 AC3 by Full4movies   Daphne and Velma (2018) DVDRip x264 AC3 by Full4movies torrent
Info hash: CA800DBB92A6DD828579C73DE3ECDCCBD7B47ED2
Category: Categories > Movies
Trackers:
View all torrent trackers >
Health:
 seeds: 39 ,  leechers: 8 |  Update >
Torrent language: English English
Total Size: 396.1 MB
Files List:
1    View torrent files >
Uploader:
shmasti
Torrent added: May 12, 2018, 3:32 pm
Tags: Action, Comedy, Crime
Users rating: ---, not rated. please login to rate.

Download Daphne and Velma (2018) DVDRip x264 AC3 by Full4movies torrent



Torrent Description



General
Complete name : Daphne and Velma (2018) DVDRip x264 AC3 by Full4movies.mkv
Format : Matroska
Format version : Version 4 / Version 2
File size : 396 MiB
Duration : 1 h 15 min
Overall bit rate : 737 kb/s
Movie name : Daphne and Velma (2018)
Encoded date : UTC 2018-05-12 05:26:33
Writing application : mkvmerge v8.1.0 ('Psychedelic Postcard') 32bit
Writing library : libebml v1.3.1 + libmatroska v1.4.2

Video
ID : 1
Format : AVC
Format/Info : Advanced Video Codec
Format profile :
Format settings, CABAC : Yes
Format settings, RefFrames : 5 frames
Codec ID : V_MPEG4/ISO/AVC
Duration : 1 h 15 min
Bit rate : 640 kb/s
Width : 720 pixels
Height : 400 pixels
Display aspect ratio : 16:9
Frame rate mode : Constant
Frame rate : 23.976 (24000/1001) FPS
Color space : YUV
Chroma subsampling : 4:2:0
Bit depth : 8 bits
Scan type : Progressive
Bits/(Pixel*Frame) : 0.093
Stream size : 343 MiB (87%)
Writing library : x264 core 148 r2643 5c65704
Default : Yes
Forced : No

Audio
ID : 2
Format : AAC
Format/Info : Advanced Audio Codec
Format profile : LC
Codec ID : A_AAC
Duration : 1 h 15 min
Bit rate : 96.0 kb/s
Channel(s) : 2 channels
Channel positions : Front: L R
Sampling rate : 48.0 kHz
Frame rate : 46.875 FPS (1024 SPF)
Compression mode : Lossy
Delay relative to video : -21 ms
Stream size : 52.1 MiB (13%)
Default : Yes
Forced : No

Screen Shoots


Download Daphne and Velma (2018) DVDRip x264 AC3 by Full4movies torrent


Related Torrents


Comments   (please login to add your comment!)

blade runner 2049 ost     dyked teen     act xxx     teen curvy     il pianeta delle scimmie     320     affamata     ship     lilu     indignazione     dvaj 254     te3n 720p     brazzers lesbian     maan     collection hindi 1080p     win win     molly jane big sister takedown     burnt     glory anal     legalporno indian     deep anal drilling 1     girl xxx     il ma     tntvillage     


Home - Browse Torrents

Made with love by an Extratorrent Fan!